Nieuws:

We zijn er weer.

Na lange tijd van afwezigheid zijn we er weer  :laugh:
We hebben alle wachtwoorden gereset, je oude wachtwoord werkt niet meer.Je moet via het "wachtwoord vergeten"-linkje je wachtwoord resetten. Je krijgt hiervoor een mailtje op het adres dat je bij ons geregistreerd hebt.

De komende tijd zijn we nog druk bezig om de rest van de site op te bouwen, dus het kan zijn dat sommige onderdelen (tijdelijk) niet werken.

Welkom, Gast. Alsjeblieft inloggen of registreren.
Heb je de activerings-mail niet ontvangen?

Auteur Topic: (Opgelost) kantelen .mov en .mp4 met avconv: hoe?  (gelezen 1678 keer)

Offline Old man

  • Lid
  • Steunpunt: Nee
(Opgelost) kantelen .mov en .mp4 met avconv: hoe?
« Gepost op: 2013/09/19, 23:51:58 »
Mijn schoondochter stuurt me steeds filmpjes die ze met de telefoon heeft gemaakt van onze kleinzoon. Voor mijn vrouw geen probleem met haar iPad, maar wil ik ze op mijn pc of tv bekijken, dan krijg ik bijkans een stijve nek, want dan worden ze landscape vertoond, terwijl ze portrait  zijn opgenomen.
In een eerder topic zag ik hier hoe je filmpjes kunt kantelen met avconv. Ik probeerde dat met het volgende commando:
avconv -i i1.mov -vf transpose=1 i2.movmaar dan krijg ik een "lege" i2.mov.

Nu zie ik in terminal deze melding aan het eind:
Citaat
encoder 'aac' is experimental and might produce bad results.
Add '-strict experimental' if you want to use it
.
dus probeerde ik dit
avconv -i i1.mov -vf transpose=1 i2.mov -strict experimental maar noppes.

Wat doe ik fout?

Bart
« Laatst bewerkt op: 2013/09/20, 22:44:50 door Old man »
Linux Mint 17.3 met Cinnamon 64 bits -> VirtualBox -> Windows 10 op  Acer Aspire V3 771G.

Offline koos4401

  • Lid
  • Steunpunt: Nee
Re: kantelen .mov en .mp4 met avconv: hoe?
« Reactie #1 Gepost op: 2013/09/20, 10:15:15 »
Probeer VLC eens en let vooral op de volgende post:

https://forum.videolan.org/viewtopic.php?f=12&t=85088&p=385408&hilit=rotate#p385408

Vertaald: VLC > Extra > Effecten en filters > tabblad Videoeffecten > tabblad geometrie > Roteren aanvinken + draaihoek vaststellen.

Werkt hier 12.04.3 fijn, getest met "Big Bucks Bunny"
Op 27-okt-2009 om 08.20 GMT geregistreerd als gebruiker nr.: 498523

Offline Old man

  • Lid
  • Steunpunt: Nee
Re: kantelen .mov en .mp4 met avconv: hoe?
« Reactie #2 Gepost op: 2013/09/20, 13:31:16 »
Dat lukt wel, maar ik zie nergens hoe ik dit gekantelde resultaat dan kan vastleggen.
Linux Mint 17.3 met Cinnamon 64 bits -> VirtualBox -> Windows 10 op  Acer Aspire V3 771G.

Offline koos4401

  • Lid
  • Steunpunt: Nee
Re: kantelen .mov en .mp4 met avconv: hoe?
« Reactie #3 Gepost op: 2013/09/20, 14:04:35 »
Kort door de bocht: da's mij met welke player ook, nog nooit gelukt.
Zou volgens onderste post in genoemde uitleg moet lukken, maar kies voor MP4 ipv MOV (MOV is een typisch Apple-formaat) als extensie.
Op 27-okt-2009 om 08.20 GMT geregistreerd als gebruiker nr.: 498523

Offline daniel

  • Lid
  • Steunpunt: Ja
Re: kantelen .mov en .mp4 met avconv: hoe?
« Reactie #4 Gepost op: 2013/09/20, 15:15:44 »
met openshot kun je de video makkelijk in bewerken en is gebaseerd op gtk interface

http://www.openshotusers.com/help/1.2/nl/ar01s16.html




Offline vanadium

  • Lid
  • Steunpunt: Nee
Re: kantelen .mov en .mp4 met avconv: hoe?
« Reactie #5 Gepost op: 2013/09/20, 18:21:31 »
Probeer eens of het lukt met
avconv -i i1.mov -vf transpose=1 i2.mp4

Offline Old man

  • Lid
  • Steunpunt: Nee
Re: kantelen .mov en .mp4 met avconv: hoe?
« Reactie #6 Gepost op: 2013/09/20, 19:16:15 »
Dankjewel Vanadium.

Hier zie je wat ik deed:
avconv -i keyb.mov -vf transpose=1 i2.mp4
avconv version 0.8.6-4:0.8.6-0ubuntu0.12.04.1, Copyright (c) 2000-2013 the Libav developers
  built on Apr  2 2013 17:02:36 with gcc 4.6.3
Input #0, mov,mp4,m4a,3gp,3g2,mj2, from 'keyb.mov':
  Metadata:
    major_brand     : qt 
    minor_version   : 512
    compatible_brands: qt 
    date            : 2013-09-16T15:12:56+0200
    date-nld        : 2013-09-16T15:12:56+0200
    encoder         : Lavf54.59.107
  Duration: 00:00:45.87, start: 0.036281, bitrate: 838 kb/s
    Stream #0.0(eng): Video: mpeg4 (Simple Profile), yuv420p, 480x272 [PAR 1:1 DAR 30:17], 769 kb/s, 30 fps, 30 tbr, 15360 tbn, 30 tbc
    Stream #0.1(eng): Audio: aac, 44100 Hz, mono, s16, 62 kb/s
[buffer @ 0x1c5a6c0] w:480 h:272 pixfmt:yuv420p
[transpose @ 0x1c5e220] w:480 h:272 dir:1 -> w:272 h:480 rotation:clockwise vflip:0
encoder 'aac' is experimental and might produce bad results.
Add '-strict experimental' if you want to use it.
En, zoals steeds, krijg ik dan wel een videobestand maar zonder inhoud (grootte 0) met de melding Er is een fout opgetreden. Stroom zonder gegevens. Dus nog niet verder gekomen.
Overigens:Het bestand had oorspronkelijk de extensie .MOV en omdat het daar niet mee ging, veranderde ik die in .mov maar dat maakt kennelijk niet uit.
« Laatst bewerkt op: 2013/09/20, 19:18:17 door Old man »
Linux Mint 17.3 met Cinnamon 64 bits -> VirtualBox -> Windows 10 op  Acer Aspire V3 771G.

Offline Old man

  • Lid
  • Steunpunt: Nee
Re: kantelen .mov en .mp4 met avconv: hoe?
« Reactie #7 Gepost op: 2013/09/20, 22:44:26 »
Het is gelukt!
Zoekend op Youtube met de woorden video rotate linux zag ik een filmpje waarin dit werd gedemonstreerd met Avidemux (GTK+).
Dit programma gedownload uit Softwarebeheer. En dan is het vrij simpel te doen.
File>Open (zoek het filmpje en laad het)>Video->Filters>Rotate> + >Angle=90 > Close .
Dan File>Save>Video (Naam) OK en klaar is je gekantelde filmpje (met behoud van geluid)

Bart
Linux Mint 17.3 met Cinnamon 64 bits -> VirtualBox -> Windows 10 op  Acer Aspire V3 771G.