Nieuws:

Welkom, Gast. Alsjeblieft inloggen of registreren.
Heb je de activerings-mail niet ontvangen?

Auteur Topic: *.bin branden op cd  (gelezen 819 keer)

Offline sniper_david

  • Lid
    • http://www.computer-team.info
  • Steunpunt: Nee
*.bin branden op cd
« Gepost op: 2006/12/31, 12:18:38 »
Hoi,

Ik heb via een torrent site een filmpje gedownload met azureus om het programma een te proberen.

Nu heb ik verschillende *.rar files uitgepakt met als resultaat een *.bin file van bijna 700Mb.

Hoe kan ik die *.bin file op cd branden zodat ik de film kan bekijken.

Ik heb k3b geinstaleerd. Maar die weigerd de *.bin te openen. ( geen image-file)
Een *.cue is nergens te vinden.

Iemand een oplossing

Offline Soul-Sing

  • Lid
  • Steunpunt: Nee
*.bin branden op cd
« Reactie #1 Gepost op: 2006/12/31, 13:16:15 »
ik heb er geen ervaring mee, maar vond dit op het ww web :
 http://monod.cornell.edu/docs/instructions/cdburning/

Offline Gandyman

  • Lid
  • Steunpunt: Nee
*.bin branden op cd
« Reactie #2 Gepost op: 2006/12/31, 14:38:05 »
Het handmatig aanmaken van een cuefile gaat als volgt!
Hiervoor heb je de desbetreffende tektst nodig die je in kladblok moet plaatsen!

maak zelf met een tekbewerker , plak de tekst erin en save hem als .cue

Voor Games/software:
FILE "image-naam.BIN" BINARY
TRACK 01 MODE1/2352
INDEX 01 00:00:00
voor Films:
FILE "bestandsnaamhier.bin" BINARY
TRACK 01 MODE2/2352
INDEX 01 00:00:00
TRACK 02 MODE2/2352
INDEX 01 00:06:00
Voor psx/PS2 games
FILE "bestandsnaam.BIN" BINARY
TRACK 01 MODE2/2352
INDEX 01 00:00:00
Wat je ook kan doen is naar Cueater gaan.
en daar ff laten zoeken naar de .cue

Wat erg belangrijk is met een .cue dat deze in dezelfde map staat als de file en opgeslagen is met precies dezelfde naam als de file zelf.

SCCS

:D
I don't suffer from insanity, I enjoy every minute of it.
Microsoft geeft je een raam, Linux geeft je een heel huis :D

Offline sniper_david

  • Lid
    • http://www.computer-team.info
  • Steunpunt: Nee
*.bin branden op cd
« Reactie #3 Gepost op: 2006/12/31, 21:30:48 »
Het probleem heeft zich vanzelf opgelost.

Ik heb de rar-files nog eens opnieuw laten ontpakken.
De *.cue file kwam opeens te voorschijn.

Weer eens geluk gehad