Nieuws:

Welkom, Gast. Alsjeblieft inloggen of registreren.
Heb je de activerings-mail niet ontvangen?

Auteur Topic: AVC video playback  (gelezen 595 keer)

Offline Emil

  • Lid
  • Steunpunt: Nee
AVC video playback
« Gepost op: 2010/04/12, 20:03:15 »
Ik heb onlangs even zitten spelen met een video camera (Panansonic HDC-TM10 FullHD camera) en ik wou de video bestanden eens afspelen maar deze spelen zeer schokkerig af op VLC of Totem.

mediainfo geeft deze output:
General
ID                               : 1
Complete name                    : test.MTS
Format                           : BDAV
Format/Info                      : Blu-ray Video
File size                        : 9.37 MiB
Duration                         : 6s 173ms
Overall bit rate                 : 12.7 Mbps
Maximum Overall bit rate         : 18.0 Mbps

Video
ID                               : 4113 (0x1011)
Menu ID                          : 1 (0x1)
Format                           : AVC
Format/Info                      : Advanced Video Codec
Format profile                   : High@L4.0
Format settings, CABAC           : Yes
Format settings, ReFrames        : 4 frames
Duration                         : 6s 80ms
Bit rate                         : 11.9 Mbps
Width                            : 1 920 pixels
Height                           : 1 080 pixels
Display aspect ratio             : 16:9
Frame rate                       : 25.000 fps
Resolution                       : 8 bits
Colorimetry                      : 4:2:0
Scan type                        : Interlaced
Scan order                       : Top Field First
Bits/(Pixel*Frame)               : 0.230
Stream size                      : 8.66 MiB (92%)

Audio
ID                               : 4352 (0x1100)
Menu ID                          : 1 (0x1)
Format                           : AC-3
Format/Info                      : Audio Coding 3
Duration                         : 6s 240ms
Bit rate mode                    : Constant
Bit rate                         : 256 Kbps
Channel(s)                       : 2 channels
Channel positions                : Front: L R
Sampling rate                    : 48.0 KHz
Video delay                      : -80ms
Stream size                      : 195 KiB (2%)

Text
ID                               : 4608 (0x1200)
Menu ID                          : 1 (0x1)
Format                           : PGS
Duration                         : 5s 696ms
Video delay                      : -80ms


De codec blijkt AVC te zijn, wat volgens wikipedia hetzelfde is als h264. h264 films kan ik wel zonder probleem afspelen.
Wat mij wel opvalt is dat de bitrate vrij hoog is in vergelijking met films die ik kan afspelen 4Mbps <-> 12 Mbps. Zou het dan gewoon een kwestie kunnen zijn van te weinig processorkracht? (Ik heb een athlon X2 5050e, 3.0 Ghz dualcore)