Nieuws:

We zijn er weer.

Na lange tijd van afwezigheid zijn we er weer  :laugh:
We hebben alle wachtwoorden gereset, je oude wachtwoord werkt niet meer.Je moet via het "wachtwoord vergeten"-linkje je wachtwoord resetten. Je krijgt hiervoor een mailtje op het adres dat je bij ons geregistreerd hebt.

De komende tijd zijn we nog druk bezig om de rest van de site op te bouwen, dus het kan zijn dat sommige onderdelen (tijdelijk) niet werken.

Welkom, Gast. Alsjeblieft inloggen of registreren.
Heb je de activerings-mail niet ontvangen?

Auteur Topic: Youtube filmpje (*.flv) converteren en bewerken  (gelezen 8882 keer)

Offline .zamorano

  • Lid
  • Steunpunt: Nee
Youtube filmpje (*.flv) converteren en bewerken
« Gepost op: 2009/03/22, 21:32:16 »
Hoi,

Ik wil een flv filmpje converteren en bewerken, maar ik krijg een error:

$ ffmpeg -i 4v6xQZ4Xvk0.flv -ab 56 -b 500 -s 320×240 revolutionOS1_3.mpg
FFmpeg version SVN-r17516, Copyright (c) 2000-2009 Fabrice Bellard, et al.               
  configuration: --prefix=/usr --extra-cflags=-Wall -g -fPIC -DPIC --cc=ccache cc --libdir=${prefix}/lib --shlibdir=${prefix}/lib --bindir=${prefix}/bin --incdir=${prefix}/include/ffmpeg --enable-shared --enable-libmp3lame --enable-gpl --enable-libfaad --mandir=${prefix}/share/man --enable-libvorbis --enable-pthreads --enable-libfaac --enable-libxvid --enable-postproc --enable-libamr-nb --enable-libamr-wb --enable-x11grab --enable-libgsm --enable-libx264 --enable-libtheora --enable-swscale --enable-libdc1394 --enable-nonfree --disable-mmx --disable-stripping --enable-avfilter --enable-libdirac --disable-decoder=libdirac --enable-libschroedinger --disable-encoder=libschroedinger --enable-libspeex --enable-avfilter-lavf --enable-vdpau --disable-altivec --disable-armv5te --disable-armv6 --disable-vis                                     
  libavutil     49.15. 0 / 49.15. 0                                                                                                         
  libavcodec    52.18. 0 / 52.18. 0
  libavformat   52.29. 2 / 52.29. 2
  libavdevice   52. 1. 0 / 52. 1. 0
  libavfilter    0. 3. 0 /  0. 3. 0
  libswscale     0. 7. 0 /  0. 7. 0
  libpostproc   51. 2. 0 / 51. 2. 0
  built on Feb 22 2009 09:28:29, gcc: 4.3.3

Seems stream 0 codec frame rate differs from container frame rate: 1000.00 (1000/1) -> 23.98 (24000/1001)
Input #0, flv, from '4v6xQZ4Xvk0.flv':
  Duration: 00:10:00.01, start: 0.000000, bitrate: 361 kb/s
    Stream #0.0: Video: flv, yuv420p, 320x240, 297 kb/s, 23.98 tbr, 1k tbn, 1k tbc
    Stream #0.1: Audio: mp3, 22050 Hz, mono, s16, 64 kb/s
WARNING: The bitrate parameter is set too low. It takes bits/s as argument, not kbits/s
WARNING: The bitrate parameter is set too low. It takes bits/s as argument, not kbits/s
Incorrect frame size

Offline Dennisgroot

  • Lid
  • Steunpunt: Nee
Re: Youtube filmpje (*.flv) converteren en bewerken
« Reactie #1 Gepost op: 2009/03/22, 21:49:49 »
Afgaand op de foutmelding maak er eens
ffmpeg -i 4v6xQZ4Xvk0.flv -ab 56 -b 500000 -s 320×240 revolutionOS1_3.mpg
van

Weet niet of het klopt proberen kan geen kwaad lijkt me  :rolleyes:

Offline .zamorano

  • Lid
  • Steunpunt: Nee
Re: Youtube filmpje (*.flv) converteren en bewerken
« Reactie #2 Gepost op: 2009/03/22, 22:03:42 »
Afgaand op de foutmelding maak er eens
ffmpeg -i 4v6xQZ4Xvk0.flv -ab 56 -b 500000 -s 320×240 revolutionOS1_3.mpg
van

Weet niet of het klopt proberen kan geen kwaad lijkt me  :rolleyes:
WARNING: The bitrate parameter is set too low. It takes bits/s as argument, not kbits/s
Incorrect frame size :(
« Laatst bewerkt op: 2009/03/22, 22:24:22 door .zamorano »

Offline .zamorano

  • Lid
  • Steunpunt: Nee
Re: Youtube filmpje (*.flv) converteren en bewerken
« Reactie #3 Gepost op: 2009/03/23, 00:31:43 »
volgens mij geeft Avidemux
video MPEG-4 ASP (lavc)
audio: mp3 (LAME)
AVI

me meer geluk

edit: al krijg ik met vlc geen beeld :/ :(
« Laatst bewerkt op: 2009/03/23, 00:35:43 door .zamorano »

Offline .zamorano

  • Lid
  • Steunpunt: Nee
Re: Youtube filmpje (*.flv) converteren en bewerken
« Reactie #4 Gepost op: 2009/03/23, 09:38:53 »
iemand nog een tip?

Offline dellkubuntu

  • Lid
  • Steunpunt: Nee
Re: Youtube filmpje (*.flv) converteren en bewerken
« Reactie #5 Gepost op: 2009/03/23, 15:44:50 »
mobile media converter gebruik ik met veel plezier,maar alleen om te converteren niet om mee te bewerken.
http://www.miksoft.net/mobileMediaConverter.htm

Offline Gijsbert

  • Lid
  • Steunpunt: Ja
Re: Youtube filmpje (*.flv) converteren en bewerken
« Reactie #6 Gepost op: 2009/03/23, 16:10:32 »
Voor de filmpjes te downloaden en direct converteren gebruik ik de add-on "downloadhelper". En voor andere dingen te converteren Fuoco Tools zie http://fuocotools.byethost13.com/index.php?board=3.0

Met vriendelijke groet,

Gijs
In der Beschränkung zeigt sich der Meister.

Offline Vistaus

  • Webteam
    • vistaus
  • Steunpunt: Nee
Re: Youtube filmpje (*.flv) converteren en bewerken
« Reactie #7 Gepost op: 2009/03/25, 11:12:46 »
mobile media converter gebruik ik met veel plezier,maar alleen om te converteren niet om mee te bewerken.
http://www.miksoft.net/mobileMediaConverter.htm


+1 MMC is een supergoed programma om mee te converteren :) FLV gaat ook perfect ermee :)

Offline .zamorano

  • Lid
  • Steunpunt: Nee
Re: Youtube filmpje (*.flv) converteren en bewerken
« Reactie #8 Gepost op: 2009/03/25, 11:57:13 »
voor downloaden gebruik ik command line:

youtube-dl
clive

Offline Dave

  • Lid
  • Steunpunt: Nee
Re: Youtube filmpje (*.flv) converteren en bewerken
« Reactie #9 Gepost op: 2009/03/25, 15:38:06 »
ik klik enkel het filmpje aan en hop komt vanzelf in de map temp.
Maar daar is het niet mee geconverteerd natuurlijk wat ook de vraag was.

Offline petervs

  • Lid
  • Steunpunt: Nee
Re: Youtube filmpje (*.flv) converteren en bewerken
« Reactie #10 Gepost op: 2009/03/26, 23:17:22 »
Misschien acetoneiso2 ? Converteert o.a. flv naar avi (grafische tool, opstarten in terminal met acetoneiso2 )

http://sourceforge.net/project/showfiles.php?group_id=179686&package_id=207611
Ubuntu MATE 16.04

Offline Chaukar Man

  • Lid
    • http://chaukar.deviantart.com
  • Steunpunt: Nee
Re: Youtube filmpje (*.flv) converteren en bewerken
« Reactie #11 Gepost op: 2009/03/27, 09:25:45 »
Ik gebruik hier deze site voor http://media-convert.com/omzetten/

maar met in Linux zou het ook moeten lukken
Zo maar wat willekeurig artwork:
http://www.chaukar.deviantart.com

Ecchi Anime, Manga and Otakuism:
http://www.animeonsen.com

Offline .zamorano

  • Lid
  • Steunpunt: Nee
Re: Youtube filmpje (*.flv) converteren en bewerken
« Reactie #12 Gepost op: 2009/03/28, 17:10:46 »
$ ffmpeg -i 4v6xQZ4Xvk0.flv -ab 56 -b 500 -s 320×240 revolutionOS1_3.mpg
Dit is frapant, bijna elke howto geeft bovenstaande aan, maar het werkt niet...

Zo werkt het wel:

ffmpeg -i bestand.flv -ab 56k -b 500k -s 320X240 bestand.mpgLet ook op X ipv x