Nieuws:

Welkom, Gast. Alsjeblieft inloggen of registreren.
Heb je de activerings-mail niet ontvangen?

Auteur Topic: Mov  (gelezen 353 keer)

Offline am

  • Lid
Mov
« Gepost op: 2020/10/08, 11:03:15 »
Hallo beste mensen,

Hoe kan ik in Ubuntu dit bestand afspelen .mov met VLC werkt dat niet. Wat kan ik doen zodat ik die kan afspelen en kan bewerken in handbrake.
Groet

Offline Haris

  • Lid
  • Steunpunt: Ja
Re: Mov
« Reactie #1 Gepost op: 2020/10/09, 15:07:24 »
mp4 van maken?
ffmpeg -i file.mov -c copy out.mp4

Offline vanadium

  • Lid
  • Steunpunt: Nee
Re: Mov
« Reactie #2 Gepost op: 2020/10/12, 10:27:33 »
ubuntu-restricted-extras moet geïnstalleerd worden vooraleer je proprietaire formaten in Ubuntu kan afspelen.

Offline am

  • Lid
Re: Mov
« Reactie #3 Gepost op: 2020/10/15, 12:30:48 »
Helaas werkt er niks ook niet met restricted ubuntu via synaptic.
Zou het eventueel aan de bestandsnaam kunnen liggen?
f15261696_mdat.mov
Ik roep maar wat, je weet het nooit
Met vriendelijke groet

Offline aartje

  • Lid
  • Steunpunt: Nee
Re: Mov
« Reactie #4 Gepost op: 2020/10/15, 13:51:36 »
Wat geeft https://mediaarea.net/MediaInfoOnline voor info over je ".mov" bestand  ?

Offline aartje

  • Lid
  • Steunpunt: Nee
Re: Mov
« Reactie #5 Gepost op: 2020/10/17, 09:49:49 »
Nog geen antwoord op mijn vraag ? Dan maar een suggestie, vaak is een .mov filmpje
 "quicktime" gecodeerd. Je zou kunnen controleren of "vlc-plugin-qt" is ge-installeerd.

Offline MauRice2

  • Lid
  • Steunpunt: Nee
Re: Mov
« Reactie #6 Gepost op: 2020/10/17, 11:36:09 »
Wat geeft https://mediaarea.net/MediaInfoOnline voor info over je ".mov" bestand  ?

Niet om het een of ander maar met de terminal opdracht file geef ook de nodige info.
file  <bestandsnaam>
MvG,
MauRice
Registered Linux user: 473556

Offline aartje

  • Lid
  • Steunpunt: Nee
Re: Mov
« Reactie #7 Gepost op: 2020/10/17, 12:28:35 »
Wat geeft https://mediaarea.net/MediaInfoOnline voor info over je ".mov" bestand  ?

Niet om het een of ander maar met de terminal opdracht file geef ook de nodige info.
file  <bestandsnaam>
Nee, "file" geeft nauwelijks informatie :

output van "file" :

file voorbeeld2.mp4

voorbeeld2.mp4: ISO Media, MP4 Base Media v1 [IS0 14496-12:2003]
aartje@dell:~/Videos$ file voorbeeld2.TS
voorbeeld2.TS: MPEG transport stream data

en als je info via bovenstaande website opvraagt:

General
Complete name                            : voorbeeld2.mp4
Format                                   : MPEG-4
Format profile                           : Base Media
Codec ID                                 : isom (mp41/avc1/qt  )
File size                                : 6.21 MiB
Duration                                 : 29 s 840 ms
Overall bit rate                         : 1 745 kb/s
Encoded date                             : UTC 2016-06-17 10:41:26
Tagged date                              : UTC 2016-06-17 10:41:26
Writing application                      : vlc 2.1.6 stream output

Video
ID                                       : 2
Format                                   : AVC
Format/Info                              : Advanced Video Codec
Format profile                           : High@L3.1
Format settings                          : CABAC / 4 Ref Frames
Format settings, CABAC                   : Yes
Format settings, Reference frames        : 4 frames
Codec ID                                 : avc1
Codec ID/Info                            : Advanced Video Coding
Duration                                 : 29 s 840 ms
Source duration                          : 29 s 880 ms
Bit rate                                 : 1 608 kb/s
Width                                    : 1 280 pixels
Height                                   : 720 pixels
Display aspect ratio                     : 16:9
Frame rate mode                          : Constant
Frame rate                               : 25.000 FPS
Color space                              : YUV
Chroma subsampling                       : 4:2:0
Bit depth                                : 8 bits
Scan type                                : Progressive
Bits/(Pixel*Frame)                       : 0.070
Stream size                              : 5.72 MiB (92%)
Source stream size                       : 5.73 MiB (92%)
Language                                 : English
Encoded date                             : UTC 2016-06-17 10:41:26
Tagged date                              : UTC 2016-06-17 10:41:26
mdhd_Duration                            : 29840
Codec configuration box                  : avcC

Audio
ID                                       : 1
Format                                   : MPEG Audio
Format version                           : Version 1
Format profile                           : Layer 2
Codec ID                                 : mp4a-6B
Duration                                 : 29 s 736 ms
Source duration                          : 29 s 760 ms
Bit rate mode                            : Constant
Bit rate                                 : 128 kb/s
Channel(s)                               : 2 channels
Sampling rate                            : 48.0 kHz
Compression mode                         : Lossy
Stream size                              : 465 KiB (7%)
Source stream size                       : 465 KiB (7%)
Language                                 : English
Encoded date                             : UTC 2016-06-17 10:41:26
Tagged date                              : UTC 2016-06-17 10:41:26
mdhd_Duration                            : 29736



Dat lijkt me nogal een verschil....



Offline aartje

  • Lid
  • Steunpunt: Nee
Re: Mov
« Reactie #8 Gepost op: 2020/10/17, 12:30:26 »
Maar ik denk dat "am" er niet meer naar kijkt (misschien "amb"  ?)........
« Laatst bewerkt op: 2020/10/17, 12:32:35 door aartje »

Offline MauRice2

  • Lid
  • Steunpunt: Nee
Re: Mov
« Reactie #9 Gepost op: 2020/10/17, 12:48:06 »
De web-site geeft inderdaad meer info.
Maar de opdracht file heeft iedereen die met Linux werkt op pc/laptop.
En het geeft genoeg info.
Citaat
Celebratrion2.mov: ISO Media, Apple QuickTime movie, Apple QuickTime (.MOV/QT)
MvG,
MauRice
Registered Linux user: 473556