Nieuws:

Welkom, Gast. Alsjeblieft inloggen of registreren.
Heb je de activerings-mail niet ontvangen?

Auteur Topic: FLV omzetten naar MPEG  (gelezen 9504 keer)

Offline Gijsbert

  • Lid
    • Bekijk profiel
  • Steunpunt: Ja
FLV omzetten naar MPEG
« Gepost op: 2008/03/09, 21:40:30 »
Ik heb onlangs wat filmpjes van You Tube afgehaald deze zijn in FLV formaat is er een programma om ze om te zetten naar MPEG?
Ik wil ze op een DVD branden om via een gewone DVD-speler af te spelen.

Met vriendelijke groet,

Gijs
In der Beschränkung zeigt sich der Meister.

Offline eendje

  • Lid
    • Bekijk profiel
  • Steunpunt: Nee
FLV omzetten naar MPEG
« Reactie #1 Gepost op: 2008/03/09, 21:42:52 »
Een dag niets geleerd is een dag niet geleefd!
Ik blog dus ik besta!
__________________________________________________________
Een vraag? Heb je al eens gekeken op: http://wiki.ubuntu-nl.org/FAQ?

Offline Gijsbert

  • Lid
    • Bekijk profiel
  • Steunpunt: Ja
FLV omzetten naar MPEG
« Reactie #2 Gepost op: 2008/03/09, 22:03:43 »
Eendje bedankt, ik ben ffmpeg al tegen gekomen, alleen niet met zo'n duidelijk voorbeeld.
Ik heb het even uitgeprobeerd ik kreeg alleen een foutmelding over het frame,
dit moet ik nog even uitzoeken.
Dit was de fout:
Seems stream 0 codec frame rate differs from container frame rate: 1000.00 (1000/1) -> 29.97 (30000/1001)
Input #0, flv, from 'Ma_Yu_Liang_push_hands.flv':
  Duration: 00:04:26.8, start: 0.000000, bitrate: 80 kb/s
  Stream #0.0: Video: flv, yuv420p, 320x240, 29.97 fps(r)
  Stream #0.1: Audio: mp3, 22050 Hz, mono, 80 kb/s
Incorrect frame size

Met vriendelijke groet,

Gijs
In der Beschränkung zeigt sich der Meister.

Offline asilnevs

  • Lid
    • jef-damen
    • Bekijk profiel
    • Ubuntu - Video - 2012
  • Steunpunt: Nee
FLV omzetten naar MPEG
« Reactie #3 Gepost op: 2008/03/09, 22:31:29 »
Allemaal Linux gerelateerde links op mijn website http://home.scarlet.be/jefdamen/Ubuntu.html
Mijn filmpjes met Openshot en Kdenlive gemaakt:http://www.youtube.com/user/asilnevs
https://jefdamen.wordpress.com/
We are spiritual beings having a human experience

Offline Gijsbert

  • Lid
    • Bekijk profiel
  • Steunpunt: Ja
FLV omzetten naar MPEG
« Reactie #4 Gepost op: 2008/03/09, 23:46:02 »
Mijn dank is groot Asilnevs.

Met vriendelijke groet,

Gijs
In der Beschränkung zeigt sich der Meister.

Offline profoX

  • Lid
    • wesley
    • Bekijk profiel
    • Lionslink
  • Steunpunt: Nee
FLV omzetten naar MPEG
« Reactie #5 Gepost op: 2008/03/10, 00:24:43 »
Quote van hier:
Citaat van: profoX
Als je écht wil kan je natuurlijk ook het 'flash video'-bestand converteren naar een ander videoformaat, maar dat zou ik afraden. Door transcoding (omzetten van een videoformaat naar een ander videoformaat) krijg je altijd extra kwaliteitsverlies, ook als je het met de allerbeste instellingen encodeert. Digitale video (of toch de video die wij gebruiken/kennen) is altijd 'lossy' en het omzetten van het ene videoformaat naar een ander videoformaat zal dus altijd kwaliteitsverlies geven. Maar als je het toch wil doen, dan moet je eens kijken naar het programma "ffmpeg" of het programma "mencoder" (mijn favoriet)

Bij mij lukte ffmpeg wel. Simpel voorbeeldje: ffmpeg -i /tmp/Flash12345 ~/Desktop/test.avi
Kwaliteit kan je tweaken met de -b (video bitrate) en -ab (audio bitrate) opties, zoals staat gedocumenteerd in "man ffmpeg"
Human Knowledge Belongs To The World -- Antitrust (2001)
Nederlandstalige Ubuntu documentatie van Ubuntu-NL (wiki)

Offline Gijsbert

  • Lid
    • Bekijk profiel
  • Steunpunt: Ja
FLV omzetten naar MPEG
« Reactie #6 Gepost op: 2008/03/10, 10:02:00 »
ProfoX, als ik geen opties meegeef dan wordt het bestand wel omgezet naar MPG.
Ik zal Mencoder eens proberen.
ConvertIT werkt ook goed en heeft een gebruiksvriendelijke GUI.
In ieder geval bedankt voor je post.

Met vriendelijke groet,

Gijs
In der Beschränkung zeigt sich der Meister.